Skip to main content

Camper Van Beethoven Live at Mystic Theatre on 2012-12-29




01. intro
02. Waka
03. Turquoise Jewelry
04. Tania
05. Summer Days
06. All Her Favorite Fruit
07. Sweethearts
08. Take The Skinheads Bowling
09. White Riot
10. (I Was So) Wasted
11. Shut Us Down
12. R & R Uzbekistan
13. Peaches In The Summertime
14. You Got To Roll
15. She Divines Water
16. Too High For The Love-In
17. Pictures Of Matchstick Men
18. Northern California Girls
19. Eye Of Fatima Pt 1
20. Eye Of Fatima Pt 2


Collection CamperVanBeethoven
Band/Artist Camper Van Beethoven
Venue Mystic Theatre
Location Petaluma, CA USA

Source SBD + AUD
Lineage WAV > FLAC @24-bit /48 kHz
Taped by morst
Transferred by morst & digitalist0ne

Notes

CVB opened for Cracker, Cracker set is here: http://archive.org/details/Cracker2012-12-29

FoH (Mystic Theatre): Randy Teaford




summer days video

Summer Days video (Quicktime MOV, 615.6 MB)

NCG video

Northern California Girls video (Quicktime MOV, 700.4 MB)

summer days video

Summer Days video (H.264, 43.1 MB)

NCG video

Northern California Girls video (H.264, 43.1 MB)



SHNTOOL LEN:
length expanded size cdr WAVE problems fmt ratio filename
0:48.691 14023028 B cxx -- ---xx flac 0.6159 CVB2012-12-29t01.flac
2:51.776 49471640 B cxx -- ---xx flac 0.7453 CVB2012-12-29t02.flac
3:07.103 53885750 B cxx -- ---xx flac 0.7525 CVB2012-12-29t03.flac
4:10.708 72203912 B cxx -- ---xx flac 0.7284 CVB2012-12-29t04.flac
6:31.342 112706558 B cxx -- ---xx flac 0.7168 CVB2012-12-29t05.flac
5:25.544 93756854 B cxx -- ---xx flac 0.7196 CVB2012-12-29t06.flac
4:47.015 82660424 B cxx -- ---xx flac 0.7370 CVB2012-12-29t07.flac
2:32.459 43908344 B cxx -- ---xx flac 0.7603 CVB2012-12-29t08.flac
2:02.132 35173922 B cxx -- ---xx flac 0.7575 CVB2012-12-29t09.flac
1:49.172 31441610 B cxx -- ---xx flac 0.7882 CVB2012-12-29t10.flac
1:14.761 21531212 B cxx -- ---xx flac 0.7805 CVB2012-12-29t11.flac
1:18.026 22471610 B cxx -- ---xx flac 0.7396 CVB2012-12-29t12.flac
2:14.658 38781500 B cxx -- ---xx flac 0.7655 CVB2012-12-29t13.flac
4:23.130 75781340 B cxx -- ---xx flac 0.6945 CVB2012-12-29t14.flac
4:34.018 78917252 B cxx -- ---xx flac 0.7342 CVB2012-12-29t15.flac
5:54.016 101956682 B cxx -- ---xx flac 0.7464 CVB2012-12-29t16.flac
4:55.578 85126622 B cxx -- ---xx flac 0.7567 CVB2012-12-29t17.flac
7:57.079 137398802 B cxx -- ---xx flac 0.7083 CVB2012-12-29t18.flac
2:59.496 51694904 B cxx -- ---xx flac 0.7708 CVB2012-12-29t19.flac
2:54.268 50189138 B cxx -- ---xx flac 0.7588 CVB2012-12-29t20.flac
72:30.973 1253081104 B 0.7359 (20 files)

-~-~-~-~-~-~-~-~-~-~-~-~-~-~-~-~-~-~-~-~-~-~-~-~-~-
The Soundscape Preservation Society (Founded 1991)
http://www.iamtypingwithonefinger.com/SPS.html
-~-~-~-~-~-~-~-~-~-~-~-~-~-~-~-~-~-~-~-~-~-~-~-~-~-

Reviews

Reviewer: Paxman1965 - - January 13, 2013
Subject: Awesome Like An Eagle
The energy and performance are top shelf as is the recording. This is almost as good as being at the show. Great job Morst and digitalist0ne. Your excellent work is most appreciated.
DOWNLOAD OPTIONS
Uploaded by
morst
on 1/12/2013
Views
853
Favorites
2
Reviews
1
PEOPLE ALSO FOUND
Camper Van Beethoven
by Camper Van Beethoven
9,949
0
1
( 1 reviews )
Source: Sony ECM-717 > Sharp MD-MT190MD
Camper Van Beethoven
by Camper Van Beethoven
411
0
0
Camper Van Beethoven
by Camper Van Beethoven
2,679
0
1
( 1 reviews )
Source: Sony ECM-717 > Sharp Minidisc MD-MT190
Camper Van Beethoven
by Camper Van Beethoven
153
0
0
Source: soundboard > Sony D5 > TDK MA90 cassette master tape
Camper Van Beethoven
by Camper Van Beethoven
1,883
2
0
Source: B&K 4011-> Lunatec V2-> Benchmark AD2K+ FOB
Camper Van Beethoven
by Camper Van Beethoven
1,559
1
0
Source: DPA 4061 > Sony PCM-D50 > WAV @48/24
Camper Van Beethoven
by Camper Van Beethoven
1,727
1
1
( 1 reviews )
Source: Nakamichi CM-301 (ortf on stage with Leegeddy "active" mod) > pmod UA5> JB3
Camper Van Beethoven
by Camper Van Beethoven
1,683
1
0
Source: AKG C480b (CK63) > Edirol UA-5 (BM2) > Nomad Jukebox 3
Camper Van Beethoven
by Camper Van Beethoven
13,255
1
2
( 2 reviews )
Source: Sony ECM-717 > Sharp Minidisc MD-MT19
Camper Van Beethoven
by Camper Van Beethoven
1,009
1
0
Source: SBD > ? > CD